+ www.porno-black.org »  :::: Dubbed Zone (Dubbed English in Hindi) » English Movies Dubbed in Hindi
|- John Wick 2014 720p x264 Esub BluRay Dual Audio English Hindi GOPISAHI

10% Off with Visa

John Wick 2014 720p x264 Esub BluRay Dual Audio English Hindi GOPISAHI

0 Members and 1 Guest are viewing this topic.

March 14, 2018, 06:44:49 PM
  • Addic7ed
  • Special Member
  • ****
  • Topic Author
  • Thank You: 393
  • Reputation: 89
  • Activity:
    34.4%
  • Country: in
  • Posts: 815
  • Topics: 770
  • Join Date: Oct 2013
  • ShareSpark Member

Format                         : Matroska

Format version                 : Version 4 / Version 2

File size : 491 MiBDuration                       : 1 h 41 min

Overall bit rate               : 678 kb/s

Movie name                     : John Wick 2014 GOPISAHI

Video

Format                         : AVC

Codec ID                       : V_MPEG4/ISO/AVC

Duration                       : 1 h 41 min

Bit rate                       : 500 kb/s

Width                          : 1 280 pixels

Height                         : 536 pixels

Display aspect ratio           : 2.40:1

Frame rate mode                : Constant

Frame rate                     : 23.976 (24000/1001) FPS

Stream size                    : 362 MiB (74%)

Title                          : GOPISAHI

Writing library                : x264 core 155 r2893 b00bcaf


Audio #1

Format                         : AAC

Duration                       : 1 h 41 min

Bit rate                       : 85.3 kb/s

Channel(s)                     : 6 channels

Channel positions              : Front: L C R, Side: L R, LFE

Sampling rate                  : 44.1 kHz

Frame rate                     : 43.066 FPS (1024 SPF)

Compression mode               : Lossy

Stream size                    : 61.8 MiB (13%)

Title                          : GOPISAHI

Language                       : English


Audio #2

Format                         : AAC

Duration                       : 1 h 41 min

Bit rate                       : 89.9 kb/s

Channel(s)                     : 6 channels

Channel positions              : Front: L C R, Side: L R, LFE

Sampling rate                  : 44.1 kHz

Frame rate                     : 43.066 FPS (1024 SPF)

Stream size                    : 65.0 MiB (13%)

Language                       : Hindi


Text

Language                       : English








Share this topic on FacebookShare this topic on GoogleShare this topic on MySpaceShare this topic on TwitterShare this topic on Yahoo




Tags:
 

Related Topics




Back to top