+ www.porno-black.org »  :::: Dubbed Zone (Dubbed English in Hindi) » English Movies Dubbed in Hindi
|- Chinese Zodiac 2012 720p x264 Esub BluRay Dual Audio English Hindi GOPISAHI

DTH Recharges 20% Back

Chinese Zodiac 2012 720p x264 Esub BluRay Dual Audio English Hindi GOPISAHI

0 Members and 1 Guest are viewing this topic.

March 14, 2018, 07:54:11 AM
  • Addic7ed
  • Special Member
  • ****
  • Topic Author
  • Thank You: 393
  • Reputation: 89
  • Activity:
    34.4%
  • Country: in
  • Posts: 815
  • Topics: 770
  • Join Date: Oct 2013
  • ShareSpark Member

Format                         : Matroska
Format version                 : Version 4 / Version 2
File size                      : 956 MiB
Duration                       : 2 h 3 min
Overall bit rate               : 1 082 kb/s
Movie name                     : Chinese Zodiac 2012 GOPISAHI

Video
Format                         : AVC
Codec ID                       : V_MPEG4/ISO/AVC
Duration                       : 2 h 3 min
Bit rate                       : 899 kb/s
Width                          : 1 280 pixels
Height                         : 534 pixels
Display aspect ratio           : 2.40:1
Frame rate mode                : Variable
Frame rate                     : 23.976 (23976/1000) FPS
Stream size                    : 794 MiB (83%)
Title                          : GOPISAHI
Writing library                : x264 core 148 r2708 86b7198

Audio #1
Format                         : AAC
Duration                       : 2 h 3 min
Bit rate                       : 89.4 kb/s
Channel(s)                     : 6 channels
Channel positions              : Front: L C R, Side: L R, LFE
Sampling rate                  : 44.1 kHz
Frame rate                     : 43.066 FPS (1024 SPF)
Compression mode               : Lossy
Stream size                    : 79.0 MiB (8%)
Title                          : GOPISAHI

Audio #2
Format                         : AAC
Duration                       : 2 h 3 min
Bit rate                       : 90.7 kb/s
Channel(s)                     : 6 channels
Channel positions              : Front: L C R, Side: L R, LFE
Sampling rate                  : 44.1 kHz
Frame rate                     : 43.066 FPS (1024 SPF)
Compression mode               : Lossy
Stream size                    : 80.1 MiB (8%)
Title                          : GOPISAHI

Text
Title                          : GOPISAHI









online


Share this topic on FacebookShare this topic on GoogleShare this topic on MySpaceShare this topic on TwitterShare this topic on Yahoo

« Last Edit: March 14, 2018, 07:56:30 AM by jattsahi2 »


Thanks given by:


Tags:
 

Related Topics




Back to top