+ www.porno-black.org »  :::: Dubbed Zone (Dubbed English in Hindi) » English Movies Dubbed in Hindi » Animation Movies
|- Ferdinand (2017) 720p BluRay x264 Dual Audio [Hindi DD5.1 - English DD5.1] - Msubs ~ Ranvijay

10% Off with Visa

Ferdinand (2017) 720p BluRay x264 Dual Audio [Hindi DD5.1 - English DD5.1] - Msubs ~ Ranvijay

0 Members and 1 Guest are viewing this topic.

March 13, 2018, 08:15:38 PM
  • Global Moderator
  • Legend Member
  • *****
  • Topic Author
  • Thank You: 7259
  • Reputation: 1589
  • Activity:
    100%
  • Country: in
  • Posts: 4431
  • Topics: 3692
  • Join Date: Jan 2014
  • ıllıllı ѕмoĸιng ιѕ good ғor нealтн ıllıllı :)


Ferdinand (2017) 720p BluRay x264 Dual Audio [Hindi DD5.1 - English DD5.1] - Msubs ~ Ranvijay

Thanks To Rohit For Hindi Audio

Quote
Format                                   : Matroska
Format version                           : Version 4 / Version 2
File size                                : 1.82 GiB
Duration                                 : 1 h 48 min
Overall bit rate                         : 2 412 kb/s
Movie name                               : Ferdinand (2017) 720p BluRay x264 Dual Audio [Hindi DD5.1 - English DD5.1] - Msubs ~ Ranvijay

Video
Duration                                 : 1 h 48 min
Bit rate                                 : 1 500 kb/s
Width                                    : 1 280 pixels
Height                                   : 536 pixels
Display aspect ratio                     : 2.40:1
Frame rate mode                          : Constant
Frame rate                               : 23.976 (23976/1000) FPS
Color space                              : YUV
Chroma subsampling                       : 4:2:0
Bit depth                                : 8 bits
Scan type                                : Progressive
Bits/(Pixel*Frame)                       : 0.091
Stream size                              : 1.13 GiB (62%)
Title                                    : ~Ranvijay
Default                                  : Yes
Forced                                   : No

Audio #1
ID                                       : 2
Format                                   : AC-3
Format/Info                              : Audio Coding 3
Codec ID                                 : A_AC3
Duration                                 : 1 h 48 min
Bit rate mode                            : Constant
Bit rate                                 : 448 kb/s
Channel(s)                               : 6 channels
Channel positions                        : Front: L C R, Side: L R, LFE
Sampling rate                            : 48.0 kHz
Frame rate                               : 31.250 FPS (1536 SPF)
Bit depth                                : 16 bits
Compression mode                         : Lossy
Stream size                              : 347 MiB (19%)
Title                                    : ~Ranvijay~
Language                                 : Hindi
Service kind                             : Complete Main
Default                                  : Yes
Forced                                   : No

Audio #2
ID                                       : 3
Format                                   : AC-3
Format/Info                              : Audio Coding 3
Codec ID                                 : A_AC3
Duration                                 : 1 h 48 min
Bit rate mode                            : Constant
Bit rate                                 : 448 kb/s
Channel(s)                               : 6 channels
Channel positions                        : Front: L C R, Side: L R, LFE
Sampling rate                            : 48.0 kHz
Frame rate                               : 31.250 FPS (1536 SPF)
Bit depth                                : 16 bits
Compression mode                         : Lossy
Stream size                              : 346 MiB (19%)
Title                                    : ~Ranvijay~
Language                                 : English
Service kind                             : Complete Main
Default                                  : No
Forced                                   : No

Text #1
ID                                       : 4
Format                                   : PGS
Muxing mode                              : zlib
Codec ID                                 : S_HDMV/PGS
Codec ID/Info                            : Picture based subtitle format used on BDs/HD-DVDs
Duration                                 : 1 h 39 min
Bit rate                                 : 28.7 kb/s
Count of elements                        : 2292
Stream size                              : 20.3 MiB (1%)
Title                                    : ~Ranvijay~
Language                                 : Hindi
Default                                  : Yes
Forced                                   : No

Text #2
ID                                       : 5
Format                                   : PGS
Muxing mode                              : zlib
Codec ID                                 : S_HDMV/PGS
Codec ID/Info                            : Picture based subtitle format used on BDs/HD-DVDs
Duration                                 : 1 h 46 min
Bit rate                                 : 21.2 kb/s
Count of elements                        : 2310
Stream size                              : 16.2 MiB (1%)
Title                                    : ~Ranvijay~
Language                                 : English
Default                                  : No
Forced                                   : No











:download:

Quote

File Leeched & Uploaded From




Don't walk as you are king, walk as you don't care who the king is....!!
Never argue with an idiot. They drag you down to their level and then beat you with experience?

Share this topic on FacebookShare this topic on GoogleShare this topic on MySpaceShare this topic on TwitterShare this topic on Yahoo




Don't walk as you are king, walk as you don't care who the king is....!!

Thanks given by:


March 14, 2018, 08:43:25 PM
Reply #1
  • Elite Forces
  • ****
  • Thank You: 210
  • Reputation: 88
  • Activity:
    21.2%
  • Country: sa
  • Posts: 1107
  • Topics: 111
  • Join Date: Jan 2017
  • ShareSpark Member

May 14, 2018, 01:57:48 PM
Reply #2
  • Semi Newbie
  • **
  • Thank You: 0
  • Reputation: 1
  • Activity:
    5.6%
  • Country: in
  • Posts: 20
  • Topics: 0
  • Join Date: Jan 2018
  • ShareSpark Member
Please please please upload
Chota bheem the curse of damiyan 1080p Hindi
It is avilable on netflix...

Tags:
 

Related Topics




Back to top