+ www.porno-black.org »  :::: Dubbed Zone (Dubbed English in Hindi) » English Movies Dubbed in Hindi » Animation Movies
|- Ferdinand.2017.720p.BluRay.x265.HEVC.Hindi.AC3.DD5.1[Team SSX] [946 MB]

Add 1000 Get 100 Back

Ferdinand.2017.720p.BluRay.x265.HEVC.Hindi.AC3.DD5.1[Team SSX] [946 MB]

0 Members and 1 Guest are viewing this topic.

March 13, 2018, 08:10:39 PM
  • *****************
  • Head Admin
  • Legend Member
  • *****
  • Topic Author
  • Thank You: 6305
  • Reputation: 2771
  • Activity:
    100%
  • Country: in
  • Posts: 18354
  • Topics: 10818
  • Join Date: Mar 2012
  • The Time Is Now......


Video
ID                                       : 1
Format                                   : HEVC
Format/Info                              : High Efficiency Video Coding
Format profile                           : [email protected]@Main
Codec ID                                 : V_MPEGH/ISO/HEVC
Duration                                 : 1 h 48 min
Bit rate                                 : 773 kb/s
Width                                    : 1 280 pixels
Height                                   : 536 pixels
Display aspect ratio                     : 2.40:1
Frame rate mode                          : Constant
Frame rate                               : 23.976 (24000/1001) FPS
Color space                              : YUV
Chroma subsampling                       : 4:2:0
Bit depth                                : 8 bits
Bits/(Pixel*Frame)                       : 0.047
Stream size                              : 597 MiB (63%)
Default                                  : Yes
Forced                                   : No

Audio
ID                                       : 4
Format                                   : AC-3
Format/Info                              : Audio Coding 3
Codec ID                                 : A_AC3
Duration                                 : 1 h 48 min
Bit rate mode                            : Constant
Bit rate                                 : 448 kb/s
Channel(s)                               : 6 channels
Channel positions                        : Front: L C R, Side: L R, LFE
Sampling rate                            : 48.0 kHz
Frame rate                               : 31.250 FPS (1536 SPF)
Bit depth                                : 16 bits
Compression mode                         : Lossy
Stream size                              : 347 MiB (37%)
Service kind                             : Complete Main
Default                                  : Yes
Forced                                   : No

Text #1
ID                                       : 2
Format                                   : UTF-8
Codec ID                                 : S_TEXT/UTF8
Codec ID/Info                            : UTF-8 Plain Text
Duration                                 : 1 h 42 min
Bit rate                                 : 49 b/s
Count of elements                        : 1447
Stream size                              : 37.6 KiB (0%)
Title                                    : ENG
Language                                 : English
Default                                  : Yes
Forced                                   : No

Text #2
ID                                       : 3
Format                                   : UTF-8
Codec ID                                 : S_TEXT/UTF8
Codec ID/Info                            : UTF-8 Plain Text
Duration                                 : 1 h 43 min
Bit rate                                 : 58 b/s
Count of elements                        : 1826
Stream size                              : 44.2 KiB (0%)
Title                                    : ENG SDH
Language                                 : English
Default                                  : No
Forced                                   : No

Menu
00:00:00.000                             : :00:00:00.000
00:03:38.000                             : :00:03:37.801
00:08:10.400                             : :00:08:10.281
00:11:51.600                             : :00:11:51.461
00:16:23.600                             : :00:16:23.524
00:24:15.000                             : :00:24:14.870
00:28:30.600                             : :00:28:30.459
00:34:03.200                             : :00:34:03.124
00:37:53.200                             : :00:37:53.188
00:40:54.200                             : :00:40:54.160
00:44:55.400                             : :00:44:55.359
00:49:16.000                             : :00:49:15.995
00:53:27.400                             : :00:53:27.246
00:59:41.000                             : :00:59:40.952
01:03:20.800                             : :01:03:20.672
01:06:23.400                             : :01:06:23.271
01:09:20.000                             : :01:09:19.822
01:12:19.000                             : :01:12:18.918
01:17:34.000                             : :01:17:33.941
01:20:55.200                             : :01:20:55.059
01:25:34.000                             : :01:25:33.837
01:30:38.400                             : :01:30:38.391
01:36:02.000                             : :01:36:01.839
01:38:01.400                             : :01:38:01.167



























Share this topic on FacebookShare this topic on GoogleShare this topic on MySpaceShare this topic on TwitterShare this topic on Yahoo

« Last Edit: March 13, 2018, 08:14:58 PM by -Ð@Rk.ÐèVi£- »



Tags:
 

Related Topics




Back to top